Sites

2016-09-09

HowTo: Convert PS1 Games with multiple Tracks to one BIN and CUE



---/ Introduction /---
This is a short Tutorial on how to convert PS1 Games with multiple Tracks to one BIN and CUE. Redump is popular for using Audio Tracks as BIN files,
the problem is the Audio Tracks won't work because most Emulators are not compatible with reading Audio Tracks as BIN files so they have to be converted into one BIN and CUE.

There are already some Tutorials out but they require a Virtual CD-ROM Software and a Burning Software. It takes to much time using these Programs when you only need IsoBuster. Using IsoBuster is a easier and faster Method.


---/ Instruction /---
1.) Download and install IsoBuster

2.) Open IsoBuster - File - Open Image File - Select a CUE file

3.) Right Click on 'CD' - Extract CD image - RAW (*.bin, *.iso)

4.) Select *.bin as format and save the BIN and CUE in same folder


---/ Information /---
Redump CUE file:

FILE "ESPN Extreme Games (USA) (Track 1).bin" BINARY
TRACK 01 MODE2/2352
INDEX 01 00:00:00
FILE "ESPN Extreme Games (USA) (Track 2).bin" BINARY
TRACK 02 AUDIO
INDEX 00 00:00:00
INDEX 01 00:04:00
FILE "ESPN Extreme Games (USA) (Track 3).bin" BINARY
TRACK 03 AUDIO
INDEX 01 00:00:00
FILE "ESPN Extreme Games (USA) (Track 4).bin" BINARY
TRACK 04 AUDIO
INDEX 01 00:00:00
FILE "ESPN Extreme Games (USA) (Track 5).bin" BINARY
TRACK 05 AUDIO
INDEX 01 00:00:00
FILE "ESPN Extreme Games (USA) (Track 6).bin" BINARY
TRACK 06 AUDIO
INDEX 01 00:00:00
FILE "ESPN Extreme Games (USA) (Track 7).bin" BINARY
TRACK 07 AUDIO
INDEX 01 00:00:00
FILE "ESPN Extreme Games (USA) (Track 8).bin" BINARY
TRACK 08 AUDIO
INDEX 01 00:00:00


IsoBuster converted CUE file:

FILE "ESPN Extreme Games (USA).bin" BINARY

TRACK 01 MODE2/2352
INDEX 01 00:00:00
REM MSF: 00:00:00 = LBA: 0
TRACK 02 AUDIO
INDEX 00 20:30:23
REM MSF: 20:30:23 = LBA: 92273
INDEX 01 20:34:23
REM MSF: 20:34:23 = LBA: 92573
TRACK 03 AUDIO
INDEX 01 26:09:48
REM MSF: 26:09:48 = LBA: 117723
TRACK 04 AUDIO
INDEX 01 30:42:16
REM MSF: 30:42:16 = LBA: 138166
TRACK 05 AUDIO
INDEX 01 36:56:34
REM MSF: 36:56:34 = LBA: 166234
TRACK 06 AUDIO
INDEX 01 42:03:13
REM MSF: 42:03:13 = LBA: 189238
TRACK 07 AUDIO
INDEX 01 48:22:18
REM MSF: 48:22:18 = LBA: 217668
TRACK 08 AUDIO
INDEX 01 54:19:44
REM MSF: 54:19:44 = LBA: 244469

2016-09-07

(NES) Ninja Gaiden (Custom Palette)



--[ Comparison ]--
Normal: Custom | Rollover: Default


---/ Introduction /---
Ninja Gaiden is one of those NES games which has to much pink or other improper colors. There is only one issue in this Palette and its during the Opening Sequence where the Ninjas Face (right) is black, it can be fixed by Hacking.

If you change the Color in the Palette then it will effect a lot of other things including Ryu's Color ingame.


---/ Download /---
GoogleDrive